extratorrent - A Fan Made Alternative Login   |   Register
Important Information
Registrations are open now
-------------------------------------

Please click here to register with Extratorrent2 to recieve latest updates, add bookmarks and to post comments.

Friends
Friends

1) ProxyFix

Extratorrent2 > Categories > Movies > Teen.Wolf.Too.1987.1080p.BluRay.x264-SADPANDA torrent


Browse Movies torrents

Teen.Wolf.Too.1987.1080p.BluRay.x264-SADPANDA torrent


Teen Wolf Too (1987)
Name: Teen Wolf Too
Released Year: 1987
Runtime: 95 mins
Gener: Comedy, Fantasy
Director: Christopher Leitch
Country: USA
IMDB Rating: 3.2/10
Plot: Todd Howard is a struggling teenager. Nothing seems to be going very well for him, until he turns into a wolf.

Download torrent: Download Teen.Wolf.Too.1987.1080p.BluRay.x264-SADPANDA torrent Magnet link Bookmark Torrent: Teen.Wolf.Too.1987.1080p.BluRay.x264-SADPANDA   Teen.Wolf.Too.1987.1080p.BluRay.x264-SADPANDA torrent
Info hash: 9186529DE6DF1A60EA65B8C2EA09B0808BA1F291
Category: Categories > Movies
Trackers:
View all torrent trackers >
Health:
 seeds: 7 ,  leechers: 12 |  Update >
Torrent language: English English
Total Size: 7.6 GB
Files List:
2    View torrent files >
Uploader:
showstopper
Torrent added: September 9, 2017, 8:31 pm
IMDB: http://www.imdb.com/title/tt0094118
Users rating: ---, not rated. please login to rate.

Download Teen.Wolf.Too.1987.1080p.BluRay.x264-SADPANDA torrent



Torrent Description

Teen.Wolf.Too.1987.1080p.BluRay.x264-SADPANDA

ImDb: http://www.imdb.com/title/tt0094118



Complete name : Teen.Wolf.Too.1987.1080p.BluRay.x264-SADPANDA.mkv
Format : Matroska
Format version : Version 4 / Version 2
File size : 7.64 GiB
Duration : 1 h 34 min
Overall bit rate mode : Variable
Overall bit rate : 11.6 Mb/s
Encoded date : UTC 2017-09-09 13:41:32
Writing application : mkvmerge v15.0.0 ('Duel with the Devil') 64-bit
Writing library : libebml v1.3.5 + libmatroska v1.4.5

Video
ID : 1
Format : AVC
Format/Info : Advanced Video Codec
Format profile :
Format settings, CABAC : Yes
Format settings, ReFrames : 4 frames
Codec ID : V_MPEG4/ISO/AVC
Duration : 1 h 34 min
Bit rate : 10.3 Mb/s
Width : 1 920 pixels
Height : 1 040 pixels
Display aspect ratio : 1.85:1
Frame rate mode : Constant
Frame rate : 23.976 (24000/1001) FPS
Color space : YUV
Chroma subsampling : 4:2:0
Bit depth : 8 bits
Scan type : Progressive
Bits/(Pixel*Frame) : 0.215
Stream size : 6.77 GiB (89%)
Writing library : x264 core 152 r2851 ba24899
Encoding settings : cabac=1 / ref=4 / deblock=1:-3:-3 / analyse=0x3:0x113 / me=umh / subme=8 / psy=1 / psy_rd=1.00:0.25 / mixed_ref=1 / me_range=24 / chroma_me=1 / trellis=1 / 8x8dct=1 / cqm=0 / deadzone=21,11 / fast_pskip=1 / chroma_qp_offset=-4 / threads=30 / lookahead_threads=5 / sliced_threads=0 / nr=0 / decimate=1 / interlaced=0 / bluray_compat=0 / constrained_intra=0 / bframes=3 / b_pyramid=2 / b_adapt=1 / b_bias=0 / direct=3 / weightb=1 / open_gop=0 / weightp=2 / keyint=240 / keyint_min=24 / scenecut=40 / intra_refresh=0 / rc_lookahead=50 / rc=2pass / mbtree=1 / bitrate=10286 / ratetol=1.0 / qcomp=0.60 / qpmin=0 / qpmax=69 / qpstep=4 / cplxblur=20.0 / qblur=0.5 / ip_ratio=1.40 / aq=1:0.75
Default : Yes
Forced : No

Audio
ID : 2
Format : FLAC
Format/Info : Free Lossless Audio Codec
Codec ID : A_FLAC
Duration : 1 h 34 min
Bit rate mode : Variable
Bit rate : 1 313 kb/s
Channel(s) : 2 channels
Channel positions : Front: L R
Sampling rate : 48.0 kHz
Frame rate : 11.719 FPS (4096 spf)
Bit depth : 24 bits
Stream size : 886 MiB (11%)
Writing library : libFLAC 1.2.1 (UTC 2007-09-17)
Language : English
Default : Yes
Forced : No

Menu
00:00:00.000 : en:00:00:00.000
00:08:14.077 : en:00:08:14.077
00:17:22.041 : en:00:17:22.041
00:22:54.873 : en:00:22:54.873
00:30:31.955 : en:00:30:31.955
00:35:52.692 : en:00:35:52.692
00:44:10.398 : en:00:44:10.398
00:55:10.516 : en:00:55:10.516
01:00:59.406 : en:01:00:59.406
01:07:45.228 : en:01:07:45.228
01:15:33.654 : en:01:15:33.654
01:31:27.565 : en:01:31:27.565






Click To View Screenshot

Click To View Screenshot

Click To View Screenshot


Download Teen.Wolf.Too.1987.1080p.BluRay.x264-SADPANDA torrent


Related Torrents


Comments   (please login to add your comment!)

lelulove     the muppets     for go     academia     suzy fakeagent     big milf     sicario day of the soldado     ramen     guardians 720p     dave east karma 2     backend     death     naughty america siri     grabbed     60 days in s01e01     norm     clear     saint     jrr tolkien     skm     the dark side of the moon     fingered     ria     hidden     


Home - Browse Torrents

Made with love by an Extratorrent Fan!