extratorrent - A Fan Made Alternative Login   |   Register
Important Information
Registrations are open now
-------------------------------------

Please click here to register with Extratorrent2 to recieve latest updates, add bookmarks and to post comments.

Friends
Friends

1) ProxyFix

Extratorrent2 > Categories > Movies > Geetha Govindam (2018) Telugu - 720p - Directors Cut - HDRip - x264 - 1.3GB - Line Audio Mp3 - MovCr torrent


Browse Movies torrents

Geetha Govindam (2018) Telugu - 720p - Directors Cut - HDRip - x264 - 1.3GB - Line Audio Mp3 - MovCr torrent


Download torrent: Download Geetha Govindam (2018) Telugu - 720p - Directors Cut - HDRip - x264 -  1.3GB - Line Audio Mp3 - MovCr torrent Magnet link Bookmark Torrent: Geetha Govindam (2018) Telugu - 720p - Directors Cut - HDRip - x264 -  1.3GB - Line Audio Mp3 - MovCr   Geetha Govindam (2018) Telugu - 720p - Directors Cut - HDRip - x264 - 1.3GB - Line Audio Mp3 - MovCr torrent
Info hash: 4D7493C5A7A74C07FD1D2B87E35B419FE88CE694
Category: Categories > Movies
Trackers:
View all torrent trackers >
Health:
 seeds: 15 ,  leechers: 2 |  Update >
Torrent language: Telugu Telugu
Total Size: 1.3 GB
Files List:
1    View torrent files >
Uploader:
MovCr
Torrent added: November 20, 2018, 4:30 pm
Users rating: ---, not rated. please login to rate.

Download Geetha Govindam (2018) Telugu - 720p - Directors Cut - HDRip - x264 -  1.3GB - Line Audio Mp3 - MovCr torrent



Torrent Description

http://movcr.cc

Geetha Govindam (2018) Telugu - 720p - Directors Cut - HDRip - x264 - 1.3GB - Line Audio Mp3 - MovCr



Video
ID : 1
Format : AVC
Format/Info : Advanced Video Codec
Format profile :
Format settings : CABAC / 4 Ref Frames
Format settings, CABAC : Yes
Format settings, RefFrames : 4 frames
Codec ID : V_MPEG4/ISO/AVC
Duration : 2 h 43 min
Bit rate : 1 084 kb/s
Width : 1 280 pixels
Height : 536 pixels
Display aspect ratio : 2.40:1
Frame rate mode : Constant
Frame rate : 24.000 FPS
Color space : YUV
Chroma subsampling : 4:2:0
Bit depth : 8 bits
Scan type : Progressive
Bits/(Pixel*Frame) : 0.066
Stream size : 1.24 GiB (93%)
Title : www.MovCr.cc
Writing library : x264 core 155 r2901 7d0ff22
Encoding settings : cabac=1 / ref=3 / deblock=1:0:0 / analyse=0x3:0x113 / me=hex / subme=7 / psy=1 / psy_rd=1.00:0.00 / mixed_ref=1 / me_range=16 / chroma_me=1 / trellis=1 / 8x8dct=1 / cqm=0 / deadzone=21,11 / fast_pskip=1 / chroma_qp_offset=-2 / threads=17 / lookahead_threads=2 / sliced_threads=0 / nr=0 / decimate=1 / interlaced=0 / bluray_compat=0 / constrained_intra=0 / bframes=3 / b_pyramid=2 / b_adapt=1 / b_bias=0 / direct=1 / weightb=1 / open_gop=0 / weightp=2 / keyint=240 / keyint_min=24 / scenecut=40 / intra_refresh=0 / rc_lookahead=40 / rc=2pass / mbtree=1 / bitrate=1084 / ratetol=1.0 / qcomp=0.60 / qpmin=0 / qpmax=69 / qpstep=4 / cplxblur=20.0 / qblur=0.5 / ip_ratio=1.40 / aq=1:1.00
Language : Telugu
Default : Yes
Forced : No

Audio
ID : 2
Format : MPEG Audio
Format version : Version 1
Format profile : Layer 3
Format settings : Joint stereo / MS Stereo
Codec ID : A_MPEG/L3
Codec ID/Hint : MP3
Duration : 2 h 43 min
Bit rate mode : Variable
Bit rate : 78.0 kb/s
Nominal bit rate : 96.0 kb/s
Channel(s) : 2 channels
Sampling rate : 48.0 kHz
Frame rate : 41.667 FPS (1152 SPF)
Compression mode : Lossy
Stream size : 91.2 MiB (7%)
Title : www.MovCr.cc
Writing library : LAME3.99r
Encoding settings : -m j -V 4 -q 3 -lowpass 15.1 --abr 96
Language : Telugu
Default : Yes
Forced : No






Download Geetha Govindam (2018) Telugu - 720p - Directors Cut - HDRip - x264 -  1.3GB - Line Audio Mp3 - MovCr torrent


Related Torrents


Comments   (please login to add your comment!)

wwrg     diver     dude     20 year old     casual s04e04     1080p hq hindi     bay     macfield     trillium     bienvenue a bord     all the money in world 1080p     cuts     dvd9     kind     anonymous 2011     strain     the 1984     blacked aj applegate convincing my investor     samitha     machine     ccleaner     sleeping     anna polina     bride     


Home - Browse Torrents

Made with love by an Extratorrent Fan!