extratorrent - A Fan Made Alternative Login   |   Register
Important Information
Registrations are open now
-------------------------------------

Please click here to register with Extratorrent2 to recieve latest updates, add bookmarks and to post comments.

Friends
Friends

1) ProxyFix

Extratorrent2 > Categories > Movies > Teen Wolf 1985 CE (1080p Bluray x265 HEVC 10bit AAC 2.0 Tigole) [UTR] torrent


Browse Movies torrents

Teen Wolf 1985 CE (1080p Bluray x265 HEVC 10bit AAC 2.0 Tigole) [UTR] torrent


Download torrent: Download Teen Wolf 1985 CE (1080p Bluray x265 HEVC 10bit AAC 2.0 Tigole) [UTR] torrent Magnet link Bookmark Torrent: Teen Wolf 1985 CE (1080p Bluray x265 HEVC 10bit AAC 2.0 Tigole) [UTR]   Teen Wolf 1985 CE (1080p Bluray x265 HEVC 10bit AAC 2.0 Tigole) [UTR] torrent
Info hash: F53D5DC5C80D4831786F5F473099D172D66B0237
Category: Categories > Movies
Trackers:
View all torrent trackers >
Health:
 seeds: 16 ,  leechers: 17 |  Update >
Torrent language: English English
Total Size: 5.0 GB
Files List:
4    View torrent files >
Uploader:
UTRplus
Torrent added: November 2, 2017, 6:39 am
Tags: comedy, fantasy
Users rating: ---, not rated. please login to rate.

Download Teen Wolf 1985 CE (1080p Bluray x265 HEVC 10bit AAC 2.0 Tigole) [UTR] torrent



Torrent Description



Teen Wolf 1985 Collector's Edition in 1080p, encoded with x265 in HEVC and AAC 2.0 English, with subtitle!
Encoded using the time consuming 2 pass, 10 bit color at 5000 kbps, from a Blu-ray source, for the highest quality possible.



Media Information

Code:

General
Format : Matroska
Format version : Version 4 / Version 2
File size : 3.29 GiB
Duration : 1 h 32 min
Overall bit rate : 5 105 kb/s
Movie name : Teen Wolf
Encoded date : UTC 2017-10-26 01:06:38
Writing application : mkvmerge v14.0.0 ('Flow') 64bit
Writing library : libebml v1.3.4 + libmatroska v1.4.5

Video
ID : 1
Format : HEVC
Format/Info : High Efficiency Video Coding
Format profile : Main @Main
Codec ID : V_MPEGH/ISO/HEVC
Duration : 1 h 32 min
Bit rate : 5 000 kb/s
Width : 1 920 pixels
Height : 1 036 pixels
Display aspect ratio : 1.85:1
Frame rate mode : Constant
Frame rate : 23.976 (24000/1001) FPS
Color space : YUV
Chroma subsampling : 4:2:0
Bit depth : 10 bits
Bits/(Pixel*Frame) : 0.105
Stream size : 3.23 GiB (98%)
Writing library : x265 2.5+22-8db95a1da9f8:[Windows][GCC 7.1.0][64 bit] 10bit
Encoding settings : cpuid=1173503 / frame-threads=3 / numa-pools=8 / wpp / no-pmode / no-pme / no-psnr / no-ssim / log-level=2 / input-csp=1 / input-res=1920x1036 / interlace=0 / total-frames=132855 / level-idc=0 / high-tier=1 / uhd-bd=0 / ref=4 / no-allow-non-conformance / no-repeat-headers / annexb / no-aud / no-hrd / info / hash=0 / no-temporal-layers / open-gop / min-keyint=23 / keyint=250 / bframes=4 / b-adapt=2 / b-pyramid / bframe-bias=0 / rc-lookahead=25 / lookahead-slices=4 / scenecut=40 / no-intra-refresh / ctu=64 / min-cu-size=8 / rect / no-amp / max-tu-size=32 / tu-inter-depth=1 / tu-intra-depth=1 / limit-tu=0 / rdoq-level=2 / dynamic-rd=0.00 / no-ssim-rd / signhide / no-tskip / nr-intra=0 / nr-inter=0 / no-constrained-intra / strong-intra-smoothing / max-merge=3 / limit-refs=3 / limit-modes / me=3 / subme=3 / merange=57 / temporal-mvp / weightp / no-weightb / no-analyze-src-pics / deblock=0:0 / sao / no-sao-non-deblock / rd=4 / no-early-skip / rskip / no-fast-intra / no-tskip-fast / no-cu-lossless / no-b-intra / no-splitrd-skip / rdpenalty=0 / psy-rd=2.00 / psy-rdoq=1.00 / no-rd-refine / analysis-reuse-mode=0 / no-lossless / cbqpoffs=0 / crqpoffs=0 / rc=abr / bitrate=5000 / qcomp=0.60 / qpstep=4 / stats-write=0 / stats-read=2 / cplxblur=20.0 / qblur=0.5 / ipratio=1.40 / pbratio=1.30 / aq-mode=2 / aq-strength=1.00 / cutree / zone-count=0 / no-strict-cbr / qg-size=32 / no-rc-grain / qpmax=69 / qpmin=0 / no-const-vbv / sar=0 / overscan=0 / videoformat=5 / range=0 / colorprim=2 / transfer=2 / colormatrix=2 / chromaloc=0 / display-window=0 / max-cll=0,0 / min-luma=0 / max-luma=1023 / log2-max-poc-lsb=8 / vui-timing-info / vui-hrd-info / slices=1 / opt-qp-pps / opt-ref-list-length-pps / no-multi-pass-opt-rps / scenecut-bias=0.05 / no-opt-cu-delta-qp / no-aq-motion / no-hdr / no-hdr-opt / no-dhdr10-opt / analysis-reuse-level=5 / scale-factor=0 / refine-intra=0 / refine-inter=0 / refine-mv=0 / no-limit-sao / ctu-info=0
Default : Yes
Forced : No

Audio
ID : 2
Format : AAC
Format/Info : Advanced Audio Codec
Format profile : LC
Codec ID : A_AAC
Duration : 1 h 32 min
Bit rate : 98.1 kb/s
Channel(s) : 2 channels
Channel positions : Front: L R
Sampling rate : 48.0 kHz
Frame rate : 46.875 FPS (1024 spf)
Compression mode : Lossy
Delay relative to video : 20 ms
Stream size : 64.8 MiB (2%)
Language : English
Default : Yes
Forced : No

Text
ID : 3
Format : VobSub
Muxing mode : zlib
Codec ID : S_VOBSUB
Codec ID/Info : Picture based subtitle format used on DVDs
Duration : 1 h 27 min
Bit rate : 8 381 b/s
Count of elements : 1325
Stream size : 5.23 MiB (0%)
Language : English
Default : No
Forced : No

Menu
00:00:00.000 : en:Chapter 01
00:06:20.838 : en:Chapter 02
00:14:33.831 : en:Chapter 03
00:20:47.829 : en:Chapter 04
00:27:28.772 : en:Chapter 05
00:35:17.031 : en:Chapter 06
00:42:30.256 : en:Chapter 07
00:50:11.299 : en:Chapter 08
00:59:00.954 : en:Chapter 09
01:07:25.374 : en:Chapter 10
01:16:00.556 : en:Chapter 11
01:27:43.216 : en:Chapter 12


Source Information

Code:

Complete name : Teen_Wolf_t01.mkv
File size : 21.1 GiB
Duration : 1 h 32 min
Overall bit rate mode : Variable
Overall bit rate : 32.7 Mb/s



Download Teen Wolf 1985 CE (1080p Bluray x265 HEVC 10bit AAC 2.0 Tigole) [UTR] torrent


Related Torrents


Comments   (please login to add your comment!)


Home - Browse Torrents

Made with love by an Extratorrent Fan!