extratorrent - A Fan Made Alternative Login   |   Register
Important Information
Registrations are open now
-------------------------------------

Please click here to register with Extratorrent2 to recieve latest updates, add bookmarks and to post comments.

Friends
Friends

1) ProxyFix

Extratorrent2 > Categories > Movies > Teen.Wolf.1985.REMASTERED.1080p.BluRay.X264-AMIABLE torrent


Browse Movies torrents

Teen.Wolf.1985.REMASTERED.1080p.BluRay.X264-AMIABLE torrent


Teen Wolf (1985)
Name: Teen Wolf
Released Year: 1985
Runtime: 91 mins
Gener: Comedy, Fantasy
Director: Rod Daniel
Country: USA
IMDB Rating: 6.0/10
Plot: An ordinary high school student discovers that his family has an unusual pedigree when he finds himself turning into a werewolf.

Download torrent: Download Teen.Wolf.1985.REMASTERED.1080p.BluRay.X264-AMIABLE torrent Magnet link Bookmark Torrent: Teen.Wolf.1985.REMASTERED.1080p.BluRay.X264-AMIABLE   Teen.Wolf.1985.REMASTERED.1080p.BluRay.X264-AMIABLE torrent
Info hash: B9CF41091A9089D3A258690A28E495DC57D4E5FE
Category: Categories > Movies
Trackers:
View all torrent trackers >
Health:
 seeds: 13 ,  leechers: 11 |  Update >
Torrent language: English English
Total Size: 9.8 GB
Files List:
2    View torrent files >
Uploader:
showstopper
Torrent added: October 23, 2017, 6:03 pm
IMDB: http://www.imdb.com/title/tt0090142
Users rating: ---, not rated. please login to rate.

Download Teen.Wolf.1985.REMASTERED.1080p.BluRay.X264-AMIABLE torrent



Torrent Description

Teen.Wolf.1985.REMASTERED.1080p.BluRay.X264-AMIABLE

ImDb: http://www.imdb.com/title/tt0090142



Complete name : Teen.Wolf.1985.REMASTERED.1080p.BluRay.X264-AMIABLE.mkv
Format : Matroska
Format version : Version 4 / Version 2
File size : 9.84 GiB
Duration : 1 h 32 min
Overall bit rate : 15.2 Mb/s
Encoded date : UTC 2010-02-22 21:41:29
Writing application : no_variable_data
Writing library : no_variable_data

Video
ID : 1
Format : AVC
Format/Info : Advanced Video Codec
Format profile :
Format settings, CABAC : Yes
Format settings, ReFrames : 4 frames
Codec ID : V_MPEG4/ISO/AVC
Duration : 1 h 32 min
Bit rate : 13.7 Mb/s
Width : 1 920 pixels
Height : 1 040 pixels
Display aspect ratio : 1.85:1
Frame rate mode : Constant
Frame rate : 23.976 (24000/1001) FPS
Color space : YUV
Chroma subsampling : 4:2:0
Bit depth : 8 bits
Scan type : Progressive
Bits/(Pixel*Frame) : 0.287
Stream size : 8.67 GiB (88%)
Writing library : x264 core 152 r2851 ba24899
Encoding settings : cabac=1 / ref=4 / deblock=1:-3:-3 / analyse=0x3:0x133 / me=umh / subme=10 / psy=1 / psy_rd=1.10:0.00 / mixed_ref=1 / me_range=32 / chroma_me=1 / trellis=2 / 8x8dct=1 / cqm=0 / deadzone=21,11 / fast_pskip=0 / chroma_qp_offset=-2 / threads=24 / lookahead_threads=4 / sliced_threads=0 / nr=0 / decimate=1 / interlaced=0 / bluray_compat=0 / constrained_intra=0 / bframes=8 / b_pyramid=2 / b_adapt=2 / b_bias=0 / direct=3 / weightb=1 / open_gop=0 / weightp=2 / keyint=240 / keyint_min=24 / scenecut=40 / intra_refresh=0 / rc_lookahead=60 / rc=2pass / mbtree=1 / bitrate=13740 / ratetol=1.0 / qcomp=0.60 / qpmin=0 / qpmax=69 / qpstep=4 / cplxblur=20.0 / qblur=0.5 / ip_ratio=1.30 / aq=3:0.75
Default : Yes
Forced : No
Statistics Tags Issue : no_variable_data 1970-01-01 00:00:00 / no_variable_data 2010-02-22 21:41:29
FromStats_BitRate : 13737867
FromStats_Duration : 01:32:21.161000000
FromStats_FrameCount : 132855
FromStats_StreamSize : 9515466936

Audio
ID : 2
Format : DTS
Format/Info : Digital Theater Systems
Mode : 16
Format settings, Endianness : Big
Codec ID : A_DTS
Duration : 1 h 32 min
Bit rate mode : Constant
Bit rate : 1 509 kb/s
Channel(s) : 2 channels
Channel positions : Front: L R
Sampling rate : 48.0 kHz
Frame rate : 93.750 FPS (512 spf)
Bit depth : 24 bits
Compression mode : Lossy
Stream size : 997 MiB (10%)
Language : English
Default : Yes
Forced : No
Statistics Tags Issue : no_variable_data 1970-01-01 00:00:00 / no_variable_data 2010-02-22 21:41:29
FromStats_BitRate : 1508999
FromStats_Duration : 01:32:22.027000000
FromStats_FrameCount : 519565
FromStats_StreamSize : 1045364780

Text #1
ID : 3
Format : UTF-8
Codec ID : S_TEXT/UTF8
Codec ID/Info : UTF-8 Plain Text
Language : English
Default : No
Forced : No
Statistics Tags Issue : no_variable_data 1970-01-01 00:00:00 / no_variable_data 2010-02-22 21:41:29
FromStats_BitRate : 63
FromStats_Duration : 01:26:30.644000000
FromStats_FrameCount : 1246
FromStats_StreamSize : 41010

Text #2
ID : 4
Format : UTF-8
Codec ID : S_TEXT/UTF8
Codec ID/Info : UTF-8 Plain Text
Title : SDH
Language : English
Default : No
Forced : No
Statistics Tags Issue : no_variable_data 1970-01-01 00:00:00 / no_variable_data 2010-02-22 21:41:29
FromStats_BitRate : 69
FromStats_Duration : 01:27:09.641000000
FromStats_FrameCount : 1325
FromStats_StreamSize : 45482

Menu
00:00:00.000 : en:00:00:00.000
00:06:21.047 : en:00:06:21.047
00:14:33.998 : en:00:14:33.998
00:20:48.122 : en:00:20:48.122
00:27:29.106 : en:00:27:29.106
00:35:17.365 : en:00:35:17.365
00:42:30.465 : en:00:42:30.465
00:50:11.550 : en:00:50:11.550
00:59:01.288 : en:00:59:01.288
01:07:25.625 : en:01:07:25.625
01:16:00.806 : en:01:16:00.806
01:27:43.467 : en:01:27:43.467






Click To View Screenshot

Click To View Screenshot

Click To View Screenshot


Download Teen.Wolf.1985.REMASTERED.1080p.BluRay.X264-AMIABLE torrent


Related Torrents


Comments   (please login to add your comment!)

bittorrent     06 02 2018     spec ops     attack     hellcats     mary and the flower     champs     bangbrosclips ava addams     2010     digital playground     the spot     digitalsin     suits donna     moms bang     diamond doll     work xxx     paris     lys     10 x 10     hindi     50 cent     hierro     carrie     level     


Home - Browse Torrents

Made with love by an Extratorrent Fan!