extratorrent - A Fan Made Alternative Login   |   Register
Important Information
Registrations are open now
-------------------------------------

Please click here to register with Extratorrent2 to recieve latest updates, add bookmarks and to post comments.

Friends
Friends

1) ProxyFix

Extratorrent2 > Categories > Movies > Dance Plus Season 4 Episode 01-06 720p WEB-HD x264 AAC AVC 4.2GB -1337xHD torrent


Browse Movies torrents

Dance Plus Season 4 Episode 01-06 720p WEB-HD x264 AAC AVC 4.2GB -1337xHD torrent


Download torrent: Download Dance Plus Season 4 Episode 01-06 720p WEB-HD x264 AAC AVC 4.2GB -1337xHD torrent Magnet link Bookmark Torrent: Dance Plus Season 4 Episode 01-06 720p WEB-HD x264 AAC AVC 4.2GB -1337xHD   Dance Plus Season 4 Episode 01-06 720p WEB-HD x264 AAC AVC 4.2GB -1337xHD torrent
Info hash: 7C0EC5E3026B4C79657B5F1C81E121746DD82D20
Category: Categories > Movies
Trackers:
View all torrent trackers >
Health:
 seeds: 0 ,  leechers: 2 |  Update >
Torrent language: Hindi Hindi
Total Size: 4.2 GB
Files List:
8    View torrent files >
Uploader:
1337xHD
Torrent added: November 18, 2018, 4:30 pm
Users rating: ---, not rated. please login to rate.

Download Dance Plus Season 4 Episode 01-06 720p WEB-HD x264 AAC AVC 4.2GB -1337xHD torrent



Torrent Description

http://hdfilmboss.mobi/
http://1337xhd.com/



Official Website http://hdfilmboss.mobi/
Official Website http://hdfilmboss.mobi/



General
Format : Matroska
Format version : Version 4 / Version 2
File size : 704 MiB
Duration : 1 h 12 min
Overall bit rate : 1 362 kb/s
Movie name : WWW.1337xHD.Com
Encoded date : UTC 2018-10-24 11:55:04
Writing application : mkvmerge v25.0.0 ('Prog Noir') 32-bit
Writing library : libebml v1.3.6 + libmatroska v1.4.9

Video
ID : 1
Format : AVC
Format/Info : Advanced Video Codec
Format profile :
Format settings : 1 Ref Frames
Format settings, CABAC : No
Format settings, RefFrames : 1 frame
Codec ID : V_MPEG4/ISO/AVC
Duration : 1 h 12 min
Bit rate mode : Constant
Bit rate : 1 300 kb/s
Width : 720 pixels
Height : 404 pixels
Display aspect ratio : 16:9
Frame rate mode : Constant
Frame rate : 25.000 FPS
Color space : YUV
Chroma subsampling : 4:2:0
Bit depth : 8 bits
Scan type : Progressive
Bits/(Pixel*Frame) : 0.179
Stream size : 671 MiB (95%)
Title : WWW.1337xHD.Com
Default : Yes
Forced : No

Audio
ID : 2
Format : AAC
Format/Info : Advanced Audio Codec
Format profile : LC
Codec ID : A_AAC-2
Duration : 1 h 12 min
Bit rate : 61.4 kb/s
Channel(s) : 2 channels
Channel positions : Front: L R
Sampling rate : 48.0 kHz
Frame rate : 46.875 FPS (1024 SPF)
Compression mode : Lossy
Delay relative to video : -33 ms
Stream size : 31.7 MiB (5%)
Title : WWW.1337xHD.Com
Default : Yes
Forced : No















Download Dance Plus Season 4 Episode 01-06 720p WEB-HD x264 AAC AVC 4.2GB -1337xHD torrent


Related Torrents

Added  Size  Health
Download Magnet link Browse Movies torrent Dance Plus Season 4 20th October 2018 Full Show HDTV 400MB -1337xHD in Movies - Bollywood, by
1337xHD
3m 419.7 MB 0 1



Comments   (please login to add your comment!)

ladyboy eat     college     hindi rip 2018     tattooed and ready to play     raven     sarah nicola randall     brazzers yoga     cuts     presents     fargo stackhd     vikings season 5     geeta     edge     nubiles     car blowjob     follow me     dual loki     x0r     wuthering heights     eronata     wife     wall     too     tna     


Home - Browse Torrents

Made with love by an Extratorrent Fan!